MEGA SALE -75% Borderlands 3 Super Deluxe всего за 550р. 180 руб. (супер цена). Внимание количество ограничено!!!

iTunes

1+1

iTunes

мы

iTunes

1

iTunes

Чернобыль

iTunes

Ральф против интернета

Лицензия

ПШазам

Лицензия

Игра престолов

Лицензия

30
pack

ВАЖНО

!!Акция!!

Alien_RageХит недели

RePack

Resident Evil 21

ИГРА 18+

pack

RePack

Metro:Exodus

!!Акция!!

Alien_Rage

RePack

fifa19

RePack

Assassins Creed: Odyssey

RePack

NEED FOR SPEED™ PAYBACK

3 сезон

9 сезон

Бесстыжие 9 сезон

Все сериалы

все сериалы на PB.wtf

RePack

FAR CRY 5
Ребята, катастрофически не хватает 1900р. для оплаты серверов за АВГУСТ (всвязи с блокировками трафик упал в 3 раза), 1-2р., выручайте.
  

В тени Луны / In the Shadow of the Moon (Джим Микл) [2019, Триллер, UHD WEB-DL 2160p] DUB [Пифагор] piratbit-ru.gq

В тени Луны через торрент piratbit-ru.gq

Раздают: 5 [ 517 KB/s ]
Размер: 13.96 GB | Добавлен: 4 д. назад | Торрент скачан:31 раз
Скачать  

09-10-2019 21:50 В тени Луны Скачать торрент  

В тени Луны / In the Shadow of the Moon
Год выпуска: 2019
Страна: США
Жанр: Триллер
Продолжительность: 01:55:32
Перевод: Дублированный | Пифагор по заказу Netflix
Субтитры: Русские (forced, full), английские (SDH)

Режиссер: Джим Микл

rating

В ролях: Бойд Холбрук, Майкл С. Холл, Боким Вудбайн, Клеопатра Коулмэн, Сара Дагдэйл, Руди Дхармалингхам, Габриэль Грэхэм, Джулия Ноуп, Райан Аллен, Билли Отис

Описание: Полицейский из Филадельфии Томас Локхарт хочет дослужиться до звания детектива. Для этого он решает лично найти опасного серийного убийцу, на чьём счету несколько загадочных убийств. Преступницей оказывается молодая женщина, которая погибает под колёсами поезда во время потасовки с Локхартом. Несмотря на это, через девять лет она снова даёт о себе знать, и теперь Локхарт должен разобраться, кто она такая и как связаны их судьбы.

Качество: UHD WEB-DL 2160p
Формат: MKV

Видео: HEVC HDR, 16.0 Mбит/с, 3840x1606, 24 кадр/с, 10 Бит
Аудио №1: Русский E-AC3 5.1, 48 kHz, 640 kbps_Дублированный (Пифагор)
Аудио №2: Английский E-AC3 + Atmos 5.1, 48 kHz, 768 kbps
скриншот  скриншот  скриншот  скриншот  

Общее
Уникальный идентификатор : 179383970791178712472636439391111944301 (0x86F418994999A1C1994CDEF82BAB186D)
Полное имя : D:\In.the.Shadow.of.the.Moon.2019.WEB-DL.2160p.x265.10bit.HDR.Master5.mkv
Формат : Matroska
Версия формата : Version 4
Размер файла : 14,0 Гбайт
Продолжительность : 1 ч. 55 м.
Общий поток : 17,3 Мбит/сек
Название фильма : In.the.Shadow.of.the.Moon.2019.WEB-DL.2160p.x265.10bit.HDR.Master5
Дата кодирования : UTC 2019-10-09 20:06:11
Программа кодирования : mkvmerge v7.9.0 ('Birds') 64bit
Библиотека кодирования : libebml v1.3.1 + libmatroska v1.4.2

Видео
Идентификатор : 1
Формат : HEVC
Формат/Информация : High Efficiency Video Coding
Коммерческое название : HDR10
Профиль формата : Main 10@L5@Main
Идентификатор кодека : V_MPEGH/ISO/HEVC
Продолжительность : 1 ч. 54 м.
Битрейт : 16,0 Мбит/сек
Ширина : 3840 пикселей
Высота : 1606 пикселей
Соотношение сторон : 2,40:1
Режим частоты кадров : Постоянный
Частота кадров : 24,000 кадра/сек
Цветовое пространство : YUV
Субдискретизация насыщенности : 4:2:0
Битовая глубина : 10 бит
Бит/(Пиксели*Кадры) : 0.108
Размер потока : 12,8 Гбайт (92%)
Заголовок : In.the.Shadow.of.the.Moon.2019.WEB-DL.2160p.x265.10bit.HDR.Master5
Библиотека кодирования : x265 3.1_RC1+3-3bdf06e3c628:[Windows][MSVC 1921][64 bit] 10bit
Настройки программы : cpuid=1111039 / frame-threads=4 / numa-pools=0,28 / wpp / no-pmode / no-pme / no-psnr / no-ssim / log-level=2 / input-csp=1 / input-res=3840x1606 / interlace=0 / total-frames=0 / level-idc=0 / high-tier=1 / uhd-bd=0 / ref=5 / no-allow-non-conformance / repeat-headers / annexb / no-aud / no-hrd / info / hash=0 / no-temporal-layers / open-gop / min-keyint=24 / keyint=250 / gop-lookahead=0 / bframes=8 / b-adapt=2 / b-pyramid / bframe-bias=0 / rc-lookahead=40 / lookahead-slices=0 / scenecut=40 / radl=0 / no-splice / no-intra-refresh / ctu=64 / min-cu-size=8 / no-rect / no-amp / max-tu-size=32 / tu-inter-depth=3 / tu-intra-depth=3 / limit-tu=0 / rdoq-level=1 / dynamic-rd=0.00 / no-ssim-rd / signhide / no-tskip / nr-intra=0 / nr-inter=0 / no-constrained-intra / strong-intra-smoothing / max-merge=5 / limit-refs=0 / no-limit-modes / me=3 / subme=4 / merange=57 / temporal-mvp / weightp / weightb / no-analyze-src-pics / deblock=0:0 / no-sao / no-sao-non-deblock / rd=6 / no-early-skip / rskip / no-fast-intra / no-tskip-fast / no-cu-lossless / b-intra / no-splitrd-skip / rdpenalty=0 / psy-rd=4.00 / psy-rdoq=8.00 / no-rd-refine / no-lossless / cbqpoffs=0 / crqpoffs=0 / rc=crf / crf=16.0 / qcomp=0.60 / qpstep=4 / stats-write=0 / stats-read=0 / ipratio=1.40 / pbratio=1.30 / aq-mode=2 / aq-strength=1.00 / cutree / zone-count=0 / no-strict-cbr / qg-size=32 / no-rc-grain / qpmax=69 / qpmin=0 / no-const-vbv / sar=0 / overscan=0 / videoformat=5 / range=0 / colorprim=9 / transfer=16 / colormatrix=9 / chromaloc=0 / display-window=0 / master-display=G(13250,34500)B(7500,3000)R(34000,16000)WP(15635,16450)L(10000000,50)cll=7953,720 / min-luma=0 / max-luma=1023 / log2-max-poc-lsb=8 / vui-timing-info / vui-hrd-info / slices=1 / no-opt-qp-pps / no-opt-ref-list-length-pps / no-multi-pass-opt-rps / scenecut-bias=0.05 / no-opt-cu-delta-qp / no-aq-motion / hdr / hdr-opt / no-dhdr10-opt / no-idr-recovery-sei / analysis-reuse-level=5 / scale-factor=0 / refine-intra=0 / refine-inter=0 / refine-mv=0 / refine-ctu-distortion=0 / no-limit-sao / ctu-info=0 / no-lowpass-dct / refine-analysis-type=0 / copy-pic=1 / max-ausize-factor=1.0 / no-dynamic-refine / no-single-sei / no-hevc-aq / no-svt / no-field / qp-adaptation-range=1.00
Default : Да
Forced : Нет
Цветовой диапазон : Limited
Основные цвета : BT.2020
Характеристики трансфера : PQ
Коэффициенты матрицы : BT.2020 non-constant
MasteringDisplay_ColorPrimaries : Display P3
MasteringDisplay_Luminance : min: 0.0050 cd/m2, max: 1000 cd/m2
MaxCLL : 7953 cd/m2
MaxFALL : 720 cd/m2

Аудио #1
Идентификатор : 2
Формат : E-AC-3
Формат/Информация : Enhanced AC-3
Коммерческое название : Dolby Digital Plus
Идентификатор кодека : A_EAC3
Продолжительность : 1 ч. 55 м.
Вид битрейта : Постоянный
Битрейт : 640 Кбит/сек
Каналы : 6 каналов
Channel layout : L R C LFE Ls Rs
Частота : 48,0 КГц
Частота кадров : 31,250 кадров/сек (1536 SPF)
Метод сжатия : С потерями
Размер потока : 529 Мбайт (4%)
Заголовок : rus
Язык : Russian
ServiceKind/String : Complete Main
Default : Да
Forced : Нет

Аудио #2
Идентификатор : 3
Формат : E-AC-3 JOC
Формат/Информация : Enhanced AC-3 with Joint Object Coding
Коммерческое название : Dolby Digital Plus with Dolby Atmos
Идентификатор кодека : A_EAC3
Продолжительность : 1 ч. 55 м.
Вид битрейта : Постоянный
Битрейт : 768 Кбит/сек
Каналы : 6 каналов
Channel layout : L R C LFE Ls Rs
Частота : 48,0 КГц
Частота кадров : 31,250 кадров/сек (1536 SPF)
Метод сжатия : С потерями
Размер потока : 635 Мбайт (4%)
Заголовок : eng
Язык : English
ServiceKind/String : Complete Main
Default : Нет
Forced : Нет
Complexity index : 16
Number of dynamic objects : 15
Bed channel count : 1 канал
Bed channel configuration : LFE

Текст #1
Идентификатор : 4
Формат : UTF-8
Идентификатор кодека : S_TEXT/UTF8
Идентификатор кодека/Информация : UTF-8 Plain Text
Продолжительность : 1 ч. 30 м.
Битрейт : 2 бит/сек
ElementCount : 32
Размер потока : 1,60 Кбайт (0%)
Заголовок : rusForced
Язык : Russian
Default : Да
Forced : Да

Текст #2
Идентификатор : 5
Формат : UTF-8
Идентификатор кодека : S_TEXT/UTF8
Идентификатор кодека/Информация : UTF-8 Plain Text
Продолжительность : 1 ч. 54 м.
Битрейт : 67 бит/сек
ElementCount : 1226
Размер потока : 56,8 Кбайт (0%)
Заголовок : rusFull
Язык : Russian
Default : Нет
Forced : Нет

Текст #3
Идентификатор : 6
Формат : UTF-8
Идентификатор кодека : S_TEXT/UTF8
Идентификатор кодека/Информация : UTF-8 Plain Text
Продолжительность : 1 ч. 49 м.
Битрейт : 60 бит/сек
ElementCount : 1705
Размер потока : 48,7 Кбайт (0%)
Заголовок : engSDH
Язык : English
Default : Нет
Forced : Нет

piratbit-ru.gq



Скачать В тени Луны через торрент http://lostpix.com/thumbs/2019-09/26/2ks0fd7lk83ye9d9toxz8dl7j.png Скачать фильм В тени Луны через торрент бесплантно в хорошем качестве Описание: Полицейский из Филадельфии Томас Локхарт хочет дослужиться до звания детектива. Для этого он решает лично найти опасного ... 9.8 10 4
Торрент: Зарегистрирован [2019-10-09 21:50] · скачан: 31 раз
Статус: √ проверено
Размер: 13.96 GB
Как cкачать? Как скачать В тени Луны через торрент | qTorrent

% Раздел Тема Автор DL S | L
Фильмы 2019 [DVDrip, WEB-DLRip, HDrip] (DUB, MVO) [ 1.46 GB ] В тени Луны / In the Shadow of the Moon [2019 WEB-DLRip] DUB [Пифагор] bober100 Скачать
17 | 0
Фильмы (WEB-DL 720p, 1080p) [ 4.4 GB ] В тени Луны / In the Shadow of the Moon [2019 WEBRip 1080p] DUB [Пифагор] bober100 Скачать
24 | 1
Фильмы 2019 [DVDrip, WEB-DLRip, HDrip] (DUB, MVO) [ 1.8 GB ] В тени Луны / In the Shadow of the Moon [2019 WEB-DLRip-AVC] DUB [Пифагор] bober100 Скачать
26 | 0
Документальные фильмы и телепередачи [ 1.37 GB ] В тени Луны / In the Shadow of the Moon [2007 документальный история BDRip Любительский ] schultz Скачать
1 | 1


>> Регистрируемся здесь <<






Отзывы и комментарии о схеме читаем и пишем здесь: ---> Отзывы и комментарии о схеме

Новые благодарочки в телеграм довольных пользователей:
скриншот   скриншот   скриншот   скриншот   скриншот
    Дорогой пользователь! Огромная просьба, поблагодарите релизера, оцените раздачу и оставьте свои комментарий, если Вы скачали В тени Луны через торрент бесплатно! Внесите свою лепту в развитие PiratBit!
    Комментировать посты могут только пользователи прошедшие не сложную регистрацию
    Показать сообщения:    

    В тени Луны через торрент
    Скачать бесплатно В тени Луны
    В тени Луны скачать торрент
    В тени Луны смотреть онлайн
    Cкачать фильм В тени Луны бесплатно
    В тени Луны скачать торрент в хорошем качестве
    В тени Луны смотреть онлайн бесплатно в хорошем качестве


    Вы не можете начинать темы
    Вы не можете отвечать на сообщения
    Вы не можете редактировать свои сообщения
    Вы не можете удалять свои сообщения
    Вы не можете голосовать в опросах
    Вы не можете прикреплять файлы к сообщениям
    Вы можете скачивать файлы