MEGA NEWS Получи личный уникальный адрес сайта и защити себя от блокировок. Внимание количество ограничено!!!

iTunes

1+1

iTunes

мы

iTunes

1

iTunes

Чернобыль

iTunes

Ральф против интернета

Лицензия

ПШазам

Лицензия

Игра престолов

Лицензия

30
pack

ВАЖНО

!!Акция!!

Alien_RageХит недели

RePack

Resident Evil 21

ИГРА 18+

pack

RePack

Metro:Exodus

!!Акция!!

Alien_Rage

RePack

fifa19

RePack

Assassins Creed: Odyssey

RePack

NEED FOR SPEED™ PAYBACK

3 сезон

9 сезон

Бесстыжие 9 сезон

Все сериалы

все сериалы на PB.wtf

RePack

FAR CRY 5
Ребята, катастрофически не хватает 1900р. для оплаты серверов за АВГУСТ (всвязи с блокировками трафик упал в 3 раза), 1-2р., выручайте.
  

Террор / The Terror / Сезон: 2 / Серии: 1-10 из 10 (Эдвард Бергер) [2019, Ужасы, драма, WEB-DLRip] [MVO] (AMS) piratbit-ru.gq

Террор через торрент piratbit-ru.gq

Раздают: 3 [ 798 KB/s ] Качают: 1 [ 0 KB/s ]
Размер: 8.75 GB | Добавлен: 1 д. 11 ч. назад | Торрент скачан:7 раз
Скачать  

09-10-2019 20:43 Террор Скачать торрент  

Террор | The Terror

Год выпуска: 2019
Страна: США
Жанр: Ужасы, драма
Продолжительность: ~ 00:43:00
Перевод: Профессиональный ( многоголосый закадровый) - AMS

Режиссёр: Милантс, Эдвард Бергер, Серджо Мимика-Геззан

В ролях: Джаред Харрис, Киаран Хайндс, Тобайас Мензис, Крис Корригэн, Иэн Харт, Кристос Лоутон, Мэттью МакНалти, Адам Нагаитис, Нив Нилсен, Пол Рэди, Себастьян Арместо, Эдвард Эшли, Майки Коллинз, Кевин Гатри, Аарон Джеффкот, Дэвид Уолмсли, Гай Фолкнер, Лиам Гэрриган, Чарли Келли, Кэролайн Болтон

Описание: В 1942 году в разгар Второй мировой войны президент США санкционировал интернирование, в результате чего около 120 тысяч японцев, живших в Америке, были насильственно выселены с Тихоокеанского побережья и помещены в специальные лагеря. Вместе с интернированными там оказалось нечто древнее и зловещее.

rating

Качество: WEB-DLRip
Формат: AVI
Видео: XviD, 720x400, 16:9, ~1955 Кбит/с, 23.976 fps, ~0.283 bit/pixel
Аудио 1: Русский, AC3, 48.0 KHz, 6 channels, 384 Kbps
Аудио 2: Английский, AC3, 48.0 KHz, 6 channels, 384 Kbps
Субтитры: нет
General
Complete name : /The.Terror.S02E01.400p.WEB-DLRip.AMS.avi
Format : AVI
Format/Info : Audio Video Interleave
File size : 1 012 MiB
Duration : 51mn 37s
Overall bit rate : 2 739 Kbps
Movie name : The Terror 2x01
Writing application : Lavf57.71.100

Video
ID : 0
Format : MPEG-4 Visual
Format profile : Advanced Simple@L5
Format settings : BVOP2
Format settings, BVOP : 2
Format settings, QPel : No
Format settings, GMC : No warppoints
Format settings, Matrix : Default (MPEG)
Codec ID : XVID
Codec ID/Hint : XviD
Duration : 51mn 37s
Bit rate : 1 955 Kbps
Width : 720 pixels
Height : 400 pixels
Display aspect ratio : 16:9
Frame rate : 23.976 (24000/1001) fps
Color space : YUV
Chroma subsampling : 4:2:0
Bit depth : 8 bits
Scan type : Progressive
Compression mode : Lossy
Bits/(Pixel*Frame) : 0.283
Stream size : 722 MiB (71%)
Title : The Terror 2x01 - MVO AMS
Writing library : XviD 67

Audio #1
ID : 1
Format : AC-3
Format/Info : Audio Coding 3
Commercial name : Dolby Digital
Codec ID : 2000
Duration : 51mn 37s
Bit rate mode : Constant
Bit rate : 384 Kbps
Channel(s) : 6 channels
Channel layout : L R C LFE Ls Rs
Sampling rate : 48.0 KHz
Frame rate : 31.250 fps (1536 SPF)
Bit depth : 16 bits
Compression mode : Lossy
Stream size : 142 MiB (14%)
Alignment : Aligned on interleaves
Interleave, duration : 32 ms (0.77 video frame)
Title : MVO AMS
Service kind : Complete Main

Audio #2
ID : 2
Format : AC-3
Format/Info : Audio Coding 3
Commercial name : Dolby Digital
Codec ID : 2000
Duration : 51mn 37s
Bit rate mode : Constant
Bit rate : 384 Kbps
Channel(s) : 6 channels
Channel layout : L R C LFE Ls Rs
Sampling rate : 48.0 KHz
Frame rate : 31.250 fps (1536 SPF)
Bit depth : 16 bits
Compression mode : Lossy
Stream size : 142 MiB (14%)
Alignment : Aligned on interleaves
Interleave, duration : 32 ms (0.77 video frame)
Title : Original
Service kind : Complete Main
скриншот  скриншот  скриншот  
Когда раздача ведётся путём добавления новых серий, при каждом добавлении создётся новый торрент. Чтобы начать докачку новой серии, пользователям необходимо сделать следующее:
(1) остановить скачивание,
(2) удалить старый торрент у себя из клиента (старые серии удалять не надо),
(3) скачать новый торрент и запустить его у себя в клиенте вместо старого, при этом указать клиенту путь в старую папку, куда и должно происходить скачивание новых серий.
Ваш клиент при этом должен произвести хеширование (проверку) старой папки (если не производит сам - помогите ему сделать это), и будет докачивать только те серии, которых у вас ещё нет. Старые серии при этом не удаляются, а продолжают раздаваться!
Eсли вы уже удалили старые серии, то предотвратить повторную закачку старых серий можно, отжав галочку в соответсвующих местах при запуске нового торрента. По возможности, желательно не удалять старые серии как можно дольше, чтобы релизёр не столько продолжал раздавать старые серии, а смог сконцентрироваться на новых.
piratbit-ru.gq



Скачать Террор через торрент https://d.radikal.ru/d16/1908/42/9427630d9848.jpg Скачать фильм Террор через торрент бесплантно в хорошем качестве Описание: В 1942 году в разгар Второй мировой войны президент США санкционировал интернирование, в результате чего около 120 тысяч японцев, ... 10 10 1
Торрент: Зарегистрирован [2019-10-15 19:10] · скачан: 7 раз
Статус: √ проверено
Размер: 8.75 GB
Как cкачать? Как скачать Террор через торрент | qTorrent

% Раздел Тема Автор DL S | L
Зарубежные сериалы [ 28.24 GB ] Террор / The Terror / Сезон: 2 / Серии: 1-10 из 10 [2019 WEB-DL 1080p] MVO [AMS] bober100 Скачать
1 | 0
Зарубежные сериалы [ 4.87 GB ] Террор / The Terror / Сезон: 2 / Серии: 1-3 из 10 [2019 WEBRip 720p] [DVO] killermax2013 Скачать
1 | 0
Зарубежные сериалы [ 4.45 GB ] Террор / The Terror / Сезон: 2 / Серии: 1-6 из 10 [2019 WEB-DLRip] MVO [TVShows] bober100 Скачать
1 | 1
Зарубежные сериалы [ 10.64 GB ] Террор / The Terror / Сезон: 2 / Серии: 1-7 из 10 [2019 WEB-DL 720p] MVO [LostFilm] bober100 Скачать
1 | 0
Зарубежные сериалы [ 12.85 GB ] Террор / The Terror / Сезон: 2 / Серии: 1-9 из 10 [2019 WEB-DL 720p] [MVO] killermax2013 Скачать
1 | 0
Зарубежные сериалы [ 8.51 GB ] Террор / The Terror / Сезон: 2 / Серии: 1-6 из 10 [2019 WEB-DL 720p] MVO [AlexFilm] bober100 Скачать
1 | 0
Зарубежные сериалы [ 1 GB ] Террор / The Terror / Сезон: 2 / Серии: 1 из 10 [2019 история WEB-DLRip] DVO [Кубик в Кубе] bober100 Скачать
1 | 0


>> Регистрируемся здесь <<






Отзывы и комментарии о схеме читаем и пишем здесь: ---> Отзывы и комментарии о схеме

Новые благодарочки в телеграм довольных пользователей:
скриншот   скриншот   скриншот   скриншот   скриншот
    Дорогой пользователь! Огромная просьба, поблагодарите релизера, оцените раздачу и оставьте свои комментарий, если Вы скачали Террор через торрент бесплатно! Внесите свою лепту в развитие PiratBit!
    Комментировать посты могут только пользователи прошедшие не сложную регистрацию
    Показать сообщения:    

    Террор через торрент
    Скачать бесплатно Террор
    Террор скачать торрент
    Террор смотреть онлайн
    Cкачать фильм Террор бесплатно
    Террор скачать торрент в хорошем качестве
    Террор смотреть онлайн бесплатно в хорошем качестве


    Вы не можете начинать темы
    Вы не можете отвечать на сообщения
    Вы не можете редактировать свои сообщения
    Вы не можете удалять свои сообщения
    Вы не можете голосовать в опросах
    Вы не можете прикреплять файлы к сообщениям
    Вы можете скачивать файлы