MEGA SALE -50% FORZA HORIZON 4 ULTIMATE+ВСЕ DLC+ОНЛАЙН всего за 599р. 299 руб. (супер цена). Внимание количество ограничено!!!

iTunes

1+1

iTunes

мы

iTunes

1

iTunes

Чернобыль

iTunes

Ральф против интернета

Лицензия

ПШазам

Лицензия

Игра престолов

Лицензия

30
pack

ВАЖНО

!!Акция!!

Alien_RageХит недели

RePack

Resident Evil 21

ИГРА 18+

pack

RePack

Metro:Exodus

!!Акция!!

Alien_Rage

RePack

fifa19

RePack

Assassins Creed: Odyssey

RePack

NEED FOR SPEED™ PAYBACK

3 сезон

9 сезон

Бесстыжие 9 сезон

Все сериалы

все сериалы на PB.wtf

RePack

FAR CRY 5
Ребята, катастрофически не хватает 7730р. для оплаты серверов за АВГУСТ (всвязи с блокировками трафик упал в 3 раза), 1-2р., выручайте.
  

Уиджи: Проклятие Вероники / Verónica (Пако Пласа) [2017, ужасы, драма, BDRip-AVC] DUB [iTunes] piratbit-ru.gq

Уиджи: Проклятие Вероники через торрент piratbit-ru.gq

Раздают: 5 [ 23 KB/s ]
Размер: 1.79 GB | Добавлен: 9 д. назад | Торрент скачан:53 раза
Скачать  

11-09-2019 07:47 Уиджи: Проклятие Вероники Скачать торрент  

Уиджи: Проклятие Вероники / Verónica«Не зови того, кого не сможешь остановить»
Год выпуска: 2017
Страна: Испания
Жанр: ужасы, драма
Продолжительность: 01:45:22
Перевод: Дублированный | iTunes
Субтитры: Английские

Режиссер: Пако Пласа

rating

В ролях: Сандра Эскасена, Бруна Гонсалес, Клаудия Плейсер, Иван Чаверо, Ана Торрент, Консуэло Трухильо, Анхела Фабиан, Карла Кампра, Чема Адева, Миранда Гас

Описание: Уиджи - это доска для спиритических сеансов вызова душ умерших. Ее называют доской Дьявола, потому что общение с загробным миром не обходится для живого человека без последствий. Тот, кто берет в руки Уиджи, должен знать, что она обладает страшной властью открывать врата чудовищному злу, противостоять которому практически невозможно.

Вероника, красивая и веселая старшеклассница, даже представить не могла, чем для нее закончится то, что она считала невинной игрой...

Качество: BDRip-AVC
Формат: MKV

Видео: 1024x554 (1.85:1), 24,000 fps, x264 ~2 052 kbps avg, 0.151 bit/pixel
Аудио: 48 kHz, AC3 Dolby Digital, 3/2 (L,C,R,l,r) + LFE ch, ~384.00 kbps avg | RUS (iTunes) |
скриншот  скриншот  скриншот  

скриншот  скриншот  скриншот  

Общее
Уникальный идентификатор: 226887483387310504009652631581646486472 (0xAAB0F09873A264A48CF2E766D4C17BC8)
Полное имя: E:\Veronica.2017.BDRip(AVC).OlLanDGroup.mkv
Формат: Matroska
Версия формата: Version 4 / Version 2
Размер файла: 1,79 Гбайт
Продолжительность: 1 ч. 45 м.
Общий поток: 2434 Кбит/сек
Название фильма: Veronica.2017 #TorpedoUK#
Дата кодирования: UTC 2018-05-15 17:31:20
Программа кодирования: mkvmerge v8.3.0 ('Over the Horizon') 64bit
Библиотека кодирования: libebml v1.3.1 + libmatroska v1.4.2

Видео
Идентификатор: 1
Формат: AVC
Формат/Информация: Advanced Video Codec
Профиль формата: High@L4.1
Параметр CABAC формата: Да
Параметр ReFrames формата: 10 кадров
Идентификатор кодека: V_MPEG4/ISO/AVC
Продолжительность: 1 ч. 45 м.
Битрейт: 2052 Кбит/сек
Ширина: 1024 пикселя
Высота: 554 пикселя
Соотношение сторон: 1,85:1
Режим частоты кадров: Постоянный
Частота кадров: 24,000 кадра/сек
Цветовое пространство: YUV
Субдискретизация насыщенности: 4:2:0
Битовая глубина: 8 бит
Тип развёртки: Прогрессивная
Бит/(Пиксели*Кадры): 0.151
Размер потока: 1,51 Гбайт (84%)
Библиотека кодирования: x264 core 146 r2538 121396c
Настройки программы: cabac=1 / ref=10 / deblock=1:-3:-3 / analyse=0x3:0x133 / me=umh / subme=11 / psy=1 / psy_rd=0.98:0.06 / mixed_ref=1 / me_range=48 / chroma_me=1 / trellis=2 / 8x8dct=1 / cqm=0 / deadzone=21,11 / fast_pskip=1 / chroma_qp_offset=-3 / threads=6 / lookahead_threads=1 / sliced_threads=0 / nr=0 / decimate=1 / interlaced=0 / bluray_compat=0 / constrained_intra=0 / bframes=10 / b_pyramid=2 / b_adapt=2 / b_bias=0 / direct=3 / weightb=1 / open_gop=0 / weightp=2 / keyint=240 / keyint_min=24 / scenecut=40 / intra_refresh=0 / rc_lookahead=40 / rc=2pass / mbtree=0 / bitrate=2052 / ratetol=1.0 / qcomp=0.60 / qpmin=0 / qpmax=69 / qpstep=4 / cplxblur=20.0 / qblur=0.5 / vbv_maxrate=50000 / vbv_bufsize=62500 / nal_hrd=none / filler=0 / ip_ratio=1.40 / pb_ratio=1.30 / aq=1:1.00
Язык: English
Default: Да
Forced: Нет

Аудио
Идентификатор: 2
Формат: AC-3
Формат/Информация: Audio Coding 3
Расширение режима: CM (complete main)
Параметр Endianness формата: Big
Идентификатор кодека: A_AC3
Продолжительность: 1 ч. 45 м.
Вид битрейта: Постоянный
Битрейт: 384 Кбит/сек
Каналы: 6 каналов
Расположение каналов: Front: L C R, Side: L R, LFE
Частота: 48,0 КГц
Частота кадров: 31,250 кадров/сек (1536 spf)
Битовая глубина: 16 бит
Метод сжатия: С потерями
Размер потока: 289 Мбайт (16%)
Заголовок: iTunes
Язык: Russian
Default: Да
Forced: Нет

Текст
Идентификатор: 3
Формат: UTF-8
Идентификатор кодека: S_TEXT/UTF8
Идентификатор кодека/Информация: UTF-8 Plain Text
Продолжительность: 1 ч. 39 м.
Битрейт: 40 бит/сек
Count of elements: 1052
Размер потока: 29,2 Кбайт (0%)
Заголовок: Full
Язык: English
Default: Нет
Forced: Нет

Меню
00:00:00.000: :Chapter 1
00:07:50.375: :Chapter 2
00:17:37.541: :Chapter 3
00:27:09.458: :Chapter 4
00:35:07.833: :Chapter 5
00:42:55.333: :Chapter 6
00:53:43.167: :Chapter 7
01:02:12.542: :Chapter 8
01:10:09.542: :Chapter 9
01:18:47.833: :Chapter 10
01:27:14.583: :Chapter 11
01:37:33.875: :Chapter 12

piratbit-ru.gq



Скачать Уиджи: Проклятие Вероники через торрент https://i90.fastpic.ru/big/2019/0910/7d/6db8169229e1f4c53bf7f74c0f9e2e7d.jpg Скачать фильм Уиджи: Проклятие Вероники через торрент бесплантно в хорошем качестве Описание: Уиджи - это доска для спиритических сеансов вызова душ умерших. Ее называют доской Дьявола, потому что общение с загробным миром ... 10 10 3
Торрент: Зарегистрирован [2019-09-11 07:47] · скачан: 53 раз
Статус: √ проверено
Размер: 1.79 GB
Как cкачать? Как скачать Уиджи: Проклятие Вероники через торрент | qTorrent

% Раздел Тема Автор DL S | L
Фильмы (Blu-ray, BD-Remux, HDDVD) [ 26.43 GB ] Уиджи: Проклятие Вероники / Verónica [2017 BD Remux 1080p] bober100 Скачать
1 | 0
Фильмы 2017 [DVDrip, WEB-DLRip, HDrip] (DUB, MVO) [ 1.41 GB ] Уиджи: Проклятие Вероники / Verónica [2017 BDRip] - Twi7ter Скачать
1 | 0
Фильмы 2017 [DVDrip, WEB-DLRip, HDrip] (DUB, MVO) [ 1.41 GB ] Уиджи: Проклятие Вероники / Verónica [2017 BDRip-AVC] Dub sergey82 Скачать
1 | 0
Фильмы 2017 [DVDrip, WEB-DLRip, HDrip] (DUB, MVO) [ 2.05 GB ] Уиджи: Проклятие Вероники / Verónica [2017 HDRip] bober100 Скачать
1 | 0
Фильмы [HD 720p, 1080p] (Хороший звук DUB, MVO) [ 5.93 GB ] Уиджи: Проклятие Вероники / Verónica [2017 BDRip 720p] bober100 Скачать
2 | 0
Фильмы [HD 720p, 1080p] (Хороший звук DUB, MVO) [ 10.44 GB ] Уиджи: Проклятие Вероники / Verónica [2017 BDRip 1080p] bober100 Скачать
2 | 0
Фильмы 2017 [DVDrip, WEB-DLRip, HDrip] (DUB, MVO) [ 1.41 GB ] Уиджи: Проклятие Вероники / Verónica [2017 BDRip] bober100 Скачать
1 | 0


>> Регистрируемся здесь <<






Отзывы и комментарии о схеме читаем и пишем здесь: ---> Отзывы и комментарии о схеме

Новые благодарочки в телеграм довольных пользователей:
скриншот   скриншот   скриншот   скриншот   скриншот
    Дорогой пользователь! Огромная просьба, поблагодарите релизера, оцените раздачу и оставьте свои комментарий, если Вы скачали Уиджи: Проклятие Вероники через торрент бесплатно! Внесите свою лепту в развитие PiratBit!
    Комментировать посты могут только пользователи прошедшие не сложную регистрацию
    Показать сообщения:    

    Уиджи: Проклятие Вероники через торрент
    Скачать бесплатно Уиджи: Проклятие Вероники
    Уиджи: Проклятие Вероники скачать торрент
    Уиджи: Проклятие Вероники смотреть онлайн
    Cкачать фильм Уиджи: Проклятие Вероники бесплатно
    Уиджи: Проклятие Вероники скачать торрент в хорошем качестве
    Уиджи: Проклятие Вероники смотреть онлайн бесплатно в хорошем качестве


    Вы не можете начинать темы
    Вы не можете отвечать на сообщения
    Вы не можете редактировать свои сообщения
    Вы не можете удалять свои сообщения
    Вы не можете голосовать в опросах
    Вы не можете прикреплять файлы к сообщениям
    Вы можете скачивать файлы