Мега распродажа FORZA HORIZON 4 ULTIMATE+ВСЕ DLC+ОНЛАЙН всего за 499р. 349 руб. (супер цена). Внимание количество ограничено!!!

iTunes

1+1

iTunes

мы

iTunes

1

iTunes

Чернобыль

1 сезон

Ральф против интернета

Лицензия

ПШазам

Лицензия

Игра престолов

Лицензия

30
pack

ВАЖНО

!!Акция!!

Alien_RageХит недели

RePack

Resident Evil 21

ИГРА 18+

pack

RePack

Metro:Exodus

!!Акция!!

Alien_Rage

RePack

fifa19

RePack

Assassins Creed: Odyssey

RePack

NEED FOR SPEED™ PAYBACK

3 сезон

9 сезон

Бесстыжие 9 сезон

Все сериалы

все сериалы на PB.wtf

RePack

FAR CRY 5
Ребята, катастрофически не хватает 7730р. для оплаты серверов за ИЮЛЬ (всвязи с блокировками трафик упал в 3 раза), 1-2р., выручайте.
  

Человек из ниоткуда / Ajeossi / The Man From Nowhere (Ли Чжон Бом) [2010, Боевик, триллер, криминал, BDRip 1080p] MVO [НТВ+] +AVO [Ю.Сербин] piratbit-ru.gq

Человек из ниоткуда через торрент piratbit-ru.gq

Раздают: 1 [ 0 KB/s ]
Размер: 8.74 GB | Добавлен: 4 д. назад | Торрент скачан:15 раз
Скачать  

12-08-2019 19:25 Человек из ниоткуда Скачать торрент  

Человек из ниоткуда / Ajeossi / The Man From Nowhere
Год выпуска: 2010
Страна: Южная Корея
Жанр: Боевик, триллер, криминал
Продолжительность: 01:59:18
Перевод: Профессиональный (многоголосый), Авторский
Субтитры: Русские, английские

Режиссер: Ли Чжон Бом

rating

В ролях: Вон Бин, Ким Сэ Рон, Ким Хе Со, Ким Хый Вон, Ким Тхэ Хун, Ким Сон О, Танайонг Вонгтракул, Сон Юн Чан, Чо Сок Хен

Описание: Чха Тхэ Сик - скромный владелец ломбарда. Девочка Чон Соме его соседка и дочь матери-одиночки, которая работает в баре танцовщицей и не столько увлекается воспитанием ребенка, сколько ищет острых ощущений на свою и без того повидавшую виды, неудавшуюся жизнь. И вот однажды мать Соме вместе со своим парнем решает обокрасть наркокурьера, который регулярно появляется в заведении, где она выступает…

Качество: BDRip 1080p
Формат: MKV

Видео: MPEG-4 AVC, 1920x816 23,976 fps, 9000 kbps
Аудио#1: Russian: AC3, 384 Kbps (6 ch) Профессиональный многоголосый (НТВ+)
Аудио#2: Russian: AC3, 640 Kbps (6 ch) Авторский (Ю.Сербин)
Аудио#3: English: AC3, 448 Kbps (6 ch) Dubbed
скриншот  скриншот  скриншот  

скриншот  скриншот  скриншот  

Общее
Уникальный идентификатор : 223419540974104300618958064570890606987 (0xA81509D563EBDC5D9F64FEEAC6BA598B)
Полное имя : The.Man.from.Nowhere.2010.x264.BDRip.1080р.mkv
Формат : Matroska
Версия формата : Version 4 / Version 2
Размер файла : 8,74 Гбайт
Продолжительность : 1 ч. 59 м.
Общий поток : 10,5 Мбит/сек
Название фильма : ☭WIDDER☭
Дата кодирования : UTC 2013-06-20 20:42:42
Программа кодирования : mkvmerge v6.2.0 ('Promised Land') built on Apr 28 2013 12:22:01
Библиотека кодирования : libebml v1.3.0 + libmatroska v1.4.0

Видео
Идентификатор : 1
Формат : AVC
Формат/Информация : Advanced Video Codec
Профиль формата : High@L4.1
Параметр CABAC формата : Да
Параметр ReFrames формата : 5 кадров
Идентификатор кодека : V_MPEG4/ISO/AVC
Продолжительность : 1 ч. 59 м.
Битрейт : 9000 Кбит/сек
Ширина : 1920 пикселей
Высота : 816 пикселей
Соотношение сторон : 2,35:1
Режим частоты кадров : Постоянный
Частота кадров : 23,976 кадра/сек
Цветовое пространство : YUV
Субдискретизация насыщенности : 4:2:0
Битовая глубина : 8 бит
Тип развёртки : Прогрессивная
Бит/(Пиксели*Кадры) : 0.240
Размер потока : 7,34 Гбайт (84%)
Заголовок : Человек из ниоткуда / Ajeossi / The Man from Nowhere (2010)
Библиотека кодирования : x264 core 133 r2334 a3ac64b
Настройки программы : cabac=1 / ref=5 / deblock=1:-3:-3 / analyse=0x3:0x133 / me=umh / subme=11 / psy=1 / psy_rd=1.00:0.00 / mixed_ref=1 / me_range=48 / chroma_me=1 / trellis=2 / 8x8dct=1 / cqm=0 / deadzone=21,11 / fast_pskip=0 / chroma_qp_offset=-2 / threads=12 / lookahead_threads=1 / sliced_threads=0 / nr=0 / decimate=1 / interlaced=0 / bluray_compat=0 / constrained_intra=0 / bframes=6 / b_pyramid=2 / b_adapt=2 / b_bias=0 / direct=3 / weightb=1 / open_gop=0 / weightp=2 / keyint=240 / keyint_min=23 / scenecut=40 / intra_refresh=0 / rc_lookahead=60 / rc=2pass / mbtree=0 / bitrate=9000 / ratetol=1.0 / qcomp=0.60 / qpmin=0 / qpmax=69 / qpstep=4 / cplxblur=20.0 / qblur=0.5 / vbv_maxrate=50000 / vbv_bufsize=60000 / nal_hrd=none / ip_ratio=1.40 / pb_ratio=1.30 / aq=2:0.80
Язык : English
Default : Да
Forced : Нет

Аудио #1
Идентификатор : 2
Формат : AC-3
Формат/Информация : Audio Coding 3
Расширение режима : CM (complete main)
Параметр Endianness формата : Big
Идентификатор кодека : A_AC3
Продолжительность : 1 ч. 59 м.
Вид битрейта : Постоянный
Битрейт : 384 Кбит/сек
Каналы : 6 каналов
Расположение каналов : Front: L C R, Side: L R, LFE
Частота : 48,0 КГц
Битовая глубина : 16 бит
Метод сжатия : С потерями
Размер потока : 328 Мбайт (4%)
Заголовок : AC3, 384 Kbps (6 ch) Профессиональный многоголосый (НТВ+)
Язык : Russian
Default : Да
Forced : Нет

Аудио #2
Идентификатор : 3
Формат : AC-3
Формат/Информация : Audio Coding 3
Расширение режима : CM (complete main)
Параметр Endianness формата : Big
Идентификатор кодека : A_AC3
Продолжительность : 1 ч. 59 м.
Вид битрейта : Постоянный
Битрейт : 640 Кбит/сек
Каналы : 6 каналов
Расположение каналов : Front: L C R, Side: L R, LFE
Частота : 48,0 КГц
Битовая глубина : 16 бит
Метод сжатия : С потерями
Размер потока : 546 Мбайт (6%)
Заголовок : AC3, 640 Kbps (6 ch) Авторский (Ю.Сербин)
Язык : Russian
Default : Нет
Forced : Нет

Аудио #3
Идентификатор : 4
Формат : AC-3
Формат/Информация : Audio Coding 3
Расширение режима : CM (complete main)
Параметр Endianness формата : Big
Идентификатор кодека : A_AC3
Продолжительность : 1 ч. 59 м.
Вид битрейта : Постоянный
Битрейт : 448 Кбит/сек
Каналы : 6 каналов
Расположение каналов : Front: L C R, Side: L R, LFE
Частота : 48,0 КГц
Битовая глубина : 16 бит
Метод сжатия : С потерями
Размер потока : 382 Мбайт (4%)
Заголовок : AC3, 448 Kbps (6 ch) Дублированный
Язык : English
Default : Нет
Forced : Нет

Текст #1
Идентификатор : 5
Формат : PGS
Режим смешивания : zlib
Идентификатор кодека : S_HDMV/PGS
Идентификатор кодека/Информация : The same subtitle format used on BDs/HD-DVDs
Язык : Russian
Default : Нет
Forced : Нет

Текст #2
Идентификатор : 6
Формат : PGS
Режим смешивания : zlib
Идентификатор кодека : S_HDMV/PGS
Идентификатор кодека/Информация : The same subtitle format used on BDs/HD-DVDs
Язык : English
Default : Нет
Forced : Нет

Меню
00:00:00.000 : en:The Bust
00:05:23.823 : en:Garbage
00:11:00.076 : en:Neighbors
00:14:44.217 : en:I Don't Hate You
00:17:08.861 : en:Find the Goods
00:20:38.320 : en:Camera Bag
00:24:46.235 : en:Delivery
00:30:34.458 : en:Let's Go Meet Mommy
00:40:19.959 : en:The Set-Up
00:44:19.448 : en:I Kill You
00:47:10.369 : en:Dark Knight
00:54:33.437 : en:Cha Tae-Shik
01:05:23.169 : en:The Club
01:10:09.664 : en:Chinatown
01:15:25.104 : en:Live for Today
01:22:45.502 : en:The Lab
01:32:23.204 : en:Don't Do It
01:35:13.124 : en:Get Back Home
01:43:35.626 : en:500
01:50:24.368 : en:Mister
01:55:10.612 : en:I Take Gold Teeth
____________________________________________
x264 [info]: frame I:1353 Avg QP:16.99 size:180994
x264 [info]: frame P:38657 Avg QP:19.48 size: 82301
x264 [info]: frame B:131620 Avg QP:21.51 size: 35105

piratbit-ru.gq



Скачать Человек из ниоткуда через торрент http://s019.radikal.ru/i615/1306/35/19a9f2140b0a.jpg Скачать фильм Человек из ниоткуда через торрент бесплантно в хорошем качестве Описание: Чха Тхэ Сик - скромный владелец ломбарда. Девочка Чон Соме его соседка и дочь матери-одиночки, которая работает в баре ... 9.8 10 4
Торрент: Зарегистрирован [2019-08-12 19:36] · скачан: 15 раз
Статус: √ проверено
Размер: 8.74 GB
Как cкачать? Как скачать Человек из ниоткуда через торрент | qTorrent


>> Регистрируемся здесь <<






Отзывы и комментарии о схеме читаем и пишем здесь: ---> Отзывы и комментарии о схеме

Новые благодарочки в телеграм довольных пользователей:
скриншот   скриншот   скриншот   скриншот   скриншот

13-08-2019 16:28 Человек из ниоткуда Скачать торрент  

Фильм охуительный!Умеют корейцы порадовать качественным фильмомpiratbit-ru.gq



    Дорогой пользователь! Огромная просьба, поблагодарите релизера, оцените раздачу и оставьте свои комментарий, если Вы скачали Человек из ниоткуда через торрент бесплатно! Внесите свою лепту в развитие PiratBit!
    Комментировать посты могут только пользователи прошедшие не сложную регистрацию
    Показать сообщения:    

    Человек из ниоткуда через торрент
    Скачать бесплатно Человек из ниоткуда
    Человек из ниоткуда скачать торрент
    Человек из ниоткуда смотреть онлайн
    Cкачать фильм Человек из ниоткуда бесплатно
    Человек из ниоткуда скачать торрент в хорошем качестве
    Человек из ниоткуда смотреть онлайн бесплатно в хорошем качестве


    Вы не можете начинать темы
    Вы не можете отвечать на сообщения
    Вы не можете редактировать свои сообщения
    Вы не можете удалять свои сообщения
    Вы не можете голосовать в опросах
    Вы не можете прикреплять файлы к сообщениям
    Вы можете скачивать файлы