MEGA SALE -50% FORZA HORIZON 4 ULTIMATE+ВСЕ DLC+ОНЛАЙН всего за 599р. 299 руб. (супер цена). Внимание количество ограничено!!!

iTunes

1+1

iTunes

мы

iTunes

1

iTunes

Чернобыль

1 сезон

Ральф против интернета

Лицензия

ПШазам

Лицензия

Игра престолов

Лицензия

30
pack

ВАЖНО

!!Акция!!

Alien_RageХит недели

RePack

Resident Evil 21

ИГРА 18+

pack

RePack

Metro:Exodus

!!Акция!!

Alien_Rage

RePack

fifa19

RePack

Assassins Creed: Odyssey

RePack

NEED FOR SPEED™ PAYBACK

3 сезон

9 сезон

Бесстыжие 9 сезон

Все сериалы

все сериалы на PB.wtf

RePack

FAR CRY 5
Ребята, катастрофически не хватает 7730р. для оплаты серверов за ИЮЛЬ (всвязи с блокировками трафик упал в 3 раза), 1-2р., выручайте.
  

Пацаны / The Boys / Сезон: 1 / Серии: 1-7 из 8 (Филип Сгриккиа, Дэниэл Эттиэс, Дженнифер Фанг) [2019, Фантастика, боевик, комедия, криминал, WEB-DL 720p] MVO [LostFilm] piratbit-ru.gq

Пацаны через торрент piratbit-ru.gq

Раздают: 3 [ 282 KB/s ] Качают: 3 [ 0 KB/s ]
Размер: 11.94 GB | Добавлен: 7 ч. назад | Торрент скачан:4 раза
Скачать  

30-07-2019 05:55 Пацаны Скачать торрент  

Пацаны | The Boys
Год выпуска: 2019
Страна: США
Жанр: Фантастика, боевик, комедия, криминал
Продолжительность: ~01:00:00
Перевод: Профессиональный (многоголосый закадровый) | LostFilm
Субтитры: русские, английские. [Амазон]

Режиссёр: Филип Сгриккиа, Дэниэл Эттиэс, Дженнифер Фанг

В ролях: Карл Урбан, Доминик МакЭллигот, Эрин Мориарти, Элизабет Шу, Энтони Старр, Дженнифер Эспозито, Саймон Пегг, Шантель Ван Сантен, Хэйли Джоэл Осмент, Чейс Кроуфорд, Нэйтан Митчелл, Джек Куэйд, Джесси Ашер, Билли Зейн, Джим Бивер, Лас Алонсо, Джанкарло Эспозито, Джимми Фэллон, Тара Рид, Сет Роген

Описание: Действие сериала разворачивается в мире, где существуют супергерои. Именно они являются настоящими звездами. Их все знают и обожают. Но за идеальным фасадом скрывается гораздо более мрачный мир наркотиков и секса, а большинство героев — в жизни не самые приятные люди. Для контроля за супергероями ЦРУ создает специальный отряд, неофициально известный как «Пацаны», суровые члены которого всегда готовы поставить зазнавшегося героя на место самым жестоким способом.

rating

Качество: WEB-DL 720p
Формат: MKV

Видео: 1280x720 at 23.976 fps, MPEG-4 AVC, ~3200 kbps avg
Аудио#1: Russian: 48 kHz, AC3, 2/0 (L,R) ch, ~384 kbps avg |Многоголосый закадровый, LostFilm|
Аудио#2: English: 48 kHz, EAC3, 3/2 (L,C,R,l,r) + LFE ch, ~640 kbps avg


Реклама: Отсутствует
скриншот  скриншот  скриншот  скриншот  

Общее
Уникальный идентификатор : 163005699379056958091734244103961401022 (0x7AA1C17917F3047A96E726985E5756BE)
Полное имя : E:\_Сериалы\_Сериалы\Пацаны\The.Boys.S01.720p.WEB-DL.LostFilm\The.Boys.S01E01.720p.WEB-DL.LostFilm.mkv
Формат : Matroska
Версия формата : Version 4
Размер файла : 1,78 Гбайт
Продолжительность : 1 ч. 0 м.
Общий поток : 4224 Кбит/сек
Дата кодирования : UTC 2019-07-30 10:20:12
Программа кодирования : mkvmerge v35.0.0 ('All The Love In The World') 64-bit
Библиотека кодирования : libebml v1.3.9 + libmatroska v1.5.2

Видео
Идентификатор : 1
Формат : AVC
Формат/Информация : Advanced Video Codec
Профиль формата : High@L3.1
Настройки формата : CABAC / 4 Ref Frames
Параметр CABAC формата : Да
Параметр RefFrames формата : 4 кадра
Идентификатор кодека : V_MPEG4/ISO/AVC
Продолжительность : 1 ч. 0 м.
Вид битрейта : Постоянный
Битрейт : 3197 Кбит/сек
Номинальный битрейт : 6000 Кбит/сек
Ширина : 1280 пикселей
Высота : 720 пикселей
Соотношение сторон : 16:9
Режим частоты кадров : Постоянный
Частота кадров : 23,976 (24000/1001) кадра/сек
Цветовое пространство : YUV
Субдискретизация насыщенности : 4:2:0
Битовая глубина : 8 бит
Тип развёртки : Прогрессивная
Бит/(Пиксели*Кадры) : 0.145
Размер потока : 1,34 Гбайт (76%)
Язык : English
Default : Да
Forced : Нет
Цветовой диапазон : Limited
Основные цвета : BT.709
Характеристики трансфера : BT.709
Коэффициенты матрицы : BT.709

Аудио #1
Идентификатор : 2
Формат : AC-3
Формат/Информация : Audio Coding 3
Коммерческое название : Dolby Digital
Идентификатор кодека : A_AC3
Продолжительность : 1 ч. 0 м.
Вид битрейта : Постоянный
Битрейт : 384 Кбит/сек
Каналы : 2 канала
ChannelLayout : L R
Частота : 48,0 КГц
Частота кадров : 31,250 кадров/сек (1536 SPF)
Битовая глубина : 16 бит
Метод сжатия : С потерями
Размер потока : 165 Мбайт (9%)
Язык : Russian
ServiceKind/String : Complete Main
Default : Да
Forced : Нет

Аудио #2
Идентификатор : 3
Формат : E-AC-3
Формат/Информация : Enhanced AC-3
Коммерческое название : Dolby Digital Plus
Идентификатор кодека : A_EAC3
Продолжительность : 1 ч. 0 м.
Вид битрейта : Постоянный
Битрейт : 640 Кбит/сек
Каналы : 6 каналов
ChannelLayout : L R C LFE Ls Rs
Частота : 48,0 КГц
Частота кадров : 31,250 кадров/сек (1536 SPF)
Метод сжатия : С потерями
Размер потока : 275 Мбайт (15%)
Язык : English
ServiceKind/String : Complete Main
Default : Нет
Forced : Нет

Текст #1
Идентификатор : 4
Формат : UTF-8
Идентификатор кодека : S_TEXT/UTF8
Идентификатор кодека/Информация : UTF-8 Plain Text
Продолжительность : 57 м. 22 с.
Битрейт : 111 бит/сек
ElementCount : 848
Размер потока : 46,8 Кбайт (0%)
Язык : Russian
Default : Нет
Forced : Нет

Текст #2
Идентификатор : 5
Формат : UTF-8
Идентификатор кодека : S_TEXT/UTF8
Идентификатор кодека/Информация : UTF-8 Plain Text
Продолжительность : 59 м. 24 с.
Битрейт : 77 бит/сек
ElementCount : 1184
Размер потока : 33,6 Кбайт (0%)
Язык : English
Default : Нет
Forced : Нет

Текст #3
Идентификатор : 6
Формат : UTF-8
Идентификатор кодека : S_TEXT/UTF8
Идентификатор кодека/Информация : UTF-8 Plain Text
Продолжительность : 59 м. 35 с.
Битрейт : 77 бит/сек
ElementCount : 1197
Размер потока : 33,7 Кбайт (0%)
Заголовок : SDH
Язык : English
Default : Нет
Forced : Нет

Меню
00:00:00.000 : en:Amazon Original
00:00:05.000 : en:Ratings
00:00:15.000 : en:Studio Logo
00:00:27.000 : en:Superheroes to the rescue
00:02:35.000 : en:A love cut short
00:06:39.000 : en:Meet Starlight
00:09:07.000 : en:Saying goodbye to Robin
00:11:56.000 : en:An important phone call
00:13:07.000 : en:Hughie wants to make things right
00:14:59.000 : en:A great time to be a superhero
00:19:11.000 : en:A-Train seems to be everywhere
00:20:06.000 : en:How bad do you want to be in the seven?
00:24:25.000 : en:Billy makes Hughie an offer
00:28:58.000 : en:Supes let loose
00:31:18.000 : en:Never let them see you cry
00:32:19.000 : en:Someone's trying to hide something
00:34:53.000 : en:Negotiations for a new hero
00:36:56.000 : en:Figure out who you are
00:41:26.000 : en:Hughie accepts the offer
00:42:42.000 : en:The first meeting of the new Seven
00:44:19.000 : en:Hughie does his part
00:51:19.000 : en:Madelyn caves on the deal
00:52:03.000 : en:An unexpected visitor
00:57:03.000 : en:Some bumpy turbulence
00:58:10.000 : en:End Credits

Внимание! Раздача ведётся путём добавления новых серий; при каждом добавлении создаётся новый торрент. Чтобы начать докачку новой серии, пользователям необходимо сделать следующее:
(1) остановить скачивание,
(2) удалить старый торрент у себя из клиента (старые серии удалять не надо),
(3) скачать новый торрент и запустить его у себя в клиенте вместо старого, при этом указать клиенту путь в старую папку куда и должно происходить скачивание новых серий.

Ваш клиент при этом должен произвести хеширование (проверку) старой папки (если не производит сам - помогите ему сделать это), и будет докачивать только те серии которых у вас ещё нет. Старые серии при этом не удаляются, а продолжают раздаваться!

Eсли вы уже удалили старые серии, то предотвратить повторную закачку старых серий можно, отжав галочку в соответствующих местах при запуске нового торрента. По возможности, желательно не удалять старые серии как можно дольше чтобы релизёр не столько продолжал раздавать старые серии, а смог сконцентрироваться на новых.
piratbit-ru.gq



Скачать Пацаны через торрент https://i4.imageban.ru/out/2019/08/02/d2fd7622d1ed3de95e4bd9a03c8eeb95.png Скачать фильм Пацаны через торрент бесплантно в хорошем качестве Описание: Действие сериала разворачивается в мире, где существуют супергерои. Именно они являются настоящими звездами. Их все знают и ... 9 10 9
Торрент: Зарегистрирован [2019-08-20 05:27] · скачан: 4 раз
Статус: √ проверено
Размер: 11.94 GB
Как cкачать? Как скачать Пацаны через торрент | qTorrent



Последний раз редактировалось: bober100 (2019-08-20 05:27), всего редактировалось 4 раз(а)


>> Регистрируемся здесь <<






Отзывы и комментарии о схеме читаем и пишем здесь: ---> Отзывы и комментарии о схеме

Новые благодарочки в телеграм довольных пользователей:
скриншот   скриншот   скриншот   скриншот   скриншот

06-08-2019 15:35 Пацаны Скачать торрент  

Классный сериал!!! piratbit-ru.gq



    Дорогой пользователь! Огромная просьба, поблагодарите релизера, оцените раздачу и оставьте свои комментарий, если Вы скачали Пацаны через торрент бесплатно! Внесите свою лепту в развитие PiratBit!
    Комментировать посты могут только пользователи прошедшие не сложную регистрацию
    Показать сообщения:    

    Пацаны через торрент
    Скачать бесплатно Пацаны
    Пацаны скачать торрент
    Пацаны смотреть онлайн
    Cкачать фильм Пацаны бесплатно
    Пацаны скачать торрент в хорошем качестве
    Пацаны смотреть онлайн бесплатно в хорошем качестве


    Вы не можете начинать темы
    Вы не можете отвечать на сообщения
    Вы не можете редактировать свои сообщения
    Вы не можете удалять свои сообщения
    Вы не можете голосовать в опросах
    Вы не можете прикреплять файлы к сообщениям
    Вы можете скачивать файлы