MEGA SALE -50% FORZA HORIZON 4 ULTIMATE+ВСЕ DLC+ОНЛАЙН всего за 599р. 299 руб. (супер цена). Внимание количество ограничено!!!

iTunes

1+1

iTunes

мы

iTunes

1

iTunes

Чернобыль

iTunes

Ральф против интернета

Лицензия

ПШазам

Лицензия

Игра престолов

Лицензия

30
pack

ВАЖНО

!!Акция!!

Alien_RageХит недели

RePack

Resident Evil 21

ИГРА 18+

pack

RePack

Metro:Exodus

!!Акция!!

Alien_Rage

RePack

fifa19

RePack

Assassins Creed: Odyssey

RePack

NEED FOR SPEED™ PAYBACK

3 сезон

9 сезон

Бесстыжие 9 сезон

Все сериалы

все сериалы на PB.wtf

RePack

FAR CRY 5
Ребята, катастрофически не хватает 7730р. для оплаты серверов за АВГУСТ (всвязи с блокировками трафик упал в 3 раза), 1-2р., выручайте.
  

Алита: Боевой ангел в 3Д / Alita: Battle Angel 3D (Роберт Родригес / Robert Rodriguez) [2019, фантастика, боевик, триллер, приключения, BDRip, 1080p] OverUnder / Вертикальная стереопара (лицензия) piratbit-ru.gq

Алита: Боевой ангел в 3Д через торрент piratbit-ru.gq

Размер: 19.4 GB | Добавлен: 2 мес. 2 д. назад | Торрент скачан:29 раз
Скачать  

17-07-2019 13:17 Алита: Боевой ангел в 3Д Скачать торрент  

Алита: Боевой ангел / Alita: Battle Angel

Год выпуска: 2019
Страна: США (Lightstorm Entertainment, Troublemaker Studios)
Жанр: фантастика, боевик, триллер, приключения
Продолжительность: 02:01:57

Перевод: Профессиональный дублированный(лицензия)
Русские субтитры: нет
Режиссер: Роберт Родригес / Robert Rodriguez

В ролях: Роза Салазар, Эйса Гонсалес, Дженнифер Коннелли, Махершала Али, Лана Кондор, Мишель Родригес, Кристоф Вальц, Эд Скрейн, Джеки Эрл Хейли, Хорхе Лендеборг мл.

Описание: Действие фильма происходит в XXVI веке, через 300 лет после Великой войны. Доктор Идо находит останки женщины-киборга. После починки киборг ничего не помнит, но обнаруживает, что в состоянии пользоваться боевыми приемами киборгов. Начинаются поиски утерянных воспоминаний.

Сэмпл: http://sendfile.su/1506289

Качество: BDrip, 1080p
Контейнер: MKV
Формат 3D: OverUnder / Вертикальная стереопара
Порядок ракурсов: левый ракурс первый
Видео кодек: x264
Аудио кодек: DTS
Видео: AVC / High@L5.0 / 23,976 fps / 1920х2160 / 20,9 Мбит/сек
Аудио: Русский / DTS / 48 KHz / 5.1 ch / 768 Мбит/сек(лицензия)
Аудио 2: Английский / AC3 / 48 KHz / 5.1 ch / 640 Кбит/сек

ВНИМАНИЕ ! На встроенных ТВ-плеерах работать не будет!!!

ТВ Samsung в названии которого есть надпись Ultra HD , и LG Ultra HD 800 серии, LG C6P, Xiaomi Mi TV 2 воспроизводят полные стереопары встроенными плеерами
Железные плееры на которых воспроизводятся полные стереопары:Popcorn C-200 , Dune HD Smart D1 , Dune HD DUO , Dune HD Smart H1 , Dune HD Smart B1 , Dune HD Max , Dune HD TV-303D, Dune HD TV-102, Dune HD Base 3D, Philips HMP7001, Aura HD, MECOOL BB2
Чтобы изображение было на весь экран в плеере выставляем, если рип 1920х1600 - то выставляем 2.35:1 , если 1920х2160 - то выставляем 16:9
Общее
Уникальный идентификатор : 227068310694893681052137219985045203387 (0xAAD3C411F2CF5C3A89AAB23DB5A429BB)
Полное имя : E:\видео\Alita Battle Angel.Rip by SeRoGa00.mkv
Формат : Matroska
Версия формата : Version 2
Размер файла : 19,4 Гбайт
Продолжительность : 2 ч. 1 м.
Общий поток : 22,8 Мбит/сек
Дата кодирования : UTC 2019-07-17 02:41:04
Программа кодирования : mkvmerge v3.4.0 ('Rapunzel') сборка от May 15 2010 09:38:20
Библиотека кодирования : libebml v0.8.0 + libmatroska v0.9.0

Видео
Идентификатор : 1
Формат : AVC
Формат/Информация : Advanced Video Codec
Профиль формата : High@L5.0
Параметр CABAC формата : Да
Параметр ReFrames формата : 4 кадра
Идентификатор кодека : V_MPEG4/ISO/AVC
Продолжительность : 2 ч. 1 м.
Битрейт : 20,9 Мбит/сек
Ширина : 1920 пикселей
Высота : 2160 пикселей
Соотношение сторон : 0,889
Частота кадров : 23,976 кадра/сек
Цветовое пространство : YUV
Субдискретизация насыщенности : 4:2:0
Битовая глубина : 8 бит
Тип развёртки : Прогрессивная
Бит/(Пиксели*Кадры) : 0.210
Размер потока : 17,8 Гбайт (92%)
Заголовок : Rip by SeRoGa00
Библиотека кодирования : x264 core 155 r2901 7d0ff22
Настройки программы : cabac=1 / ref=4 / deblock=1:-3:-3 / analyse=0x3:0x113 / me=umh / subme=10 / psy=1 / psy_rd=1.00:0.15 / mixed_ref=1 / me_range=24 / chroma_me=1 / trellis=2 / 8x8dct=1 / cqm=0 / deadzone=21,11 / fast_pskip=1 / chroma_qp_offset=-3 / threads=18 / lookahead_threads=6 / sliced_threads=0 / nr=0 / decimate=0 / interlaced=0 / bluray_compat=0 / constrained_intra=0 / bframes=10 / b_pyramid=2 / b_adapt=2 / b_bias=0 / direct=3 / weightb=1 / open_gop=0 / weightp=2 / keyint=250 / keyint_min=23 / scenecut=40 / intra_refresh=0 / rc_lookahead=60 / rc=crf / mbtree=1 / crf=16.5 / qcomp=0.60 / qpmin=10 / qpmax=69 / qpstep=4 / vbv_maxrate=40000 / vbv_bufsize=40000 / crf_max=0.0 / nal_hrd=none / filler=0 / ip_ratio=1.40 / aq=1:1.00
Язык : English
Default : Нет
Forced : Нет

Аудио #1
Идентификатор : 2
Формат : DTS
Формат/Информация : Digital Theater Systems
Идентификатор кодека : A_DTS
Продолжительность : 2 ч. 1 м.
Вид битрейта : Постоянный
Битрейт : 768 Кбит/сек
Каналы : 6 каналов
Расположение каналов : Front: L C R, Side: L R, LFE
Частота : 48,0 КГц
Битовая глубина : 24 бит
Метод сжатия : С потерями
Размер потока : 658 Мбайт (3%)
Язык : Russian
Default : Да
Forced : Нет

Аудио #2
Идентификатор : 3
Формат : AC-3
Формат/Информация : Audio Coding 3
Расширение режима : CM (complete main)
Параметр Endianness формата : Big
Идентификатор кодека : A_AC3
Продолжительность : 2 ч. 1 м.
Вид битрейта : Постоянный
Битрейт : 640 Кбит/сек
Каналы : 6 каналов
Расположение каналов : Front: L C R, Side: L R, LFE
Частота : 48,0 КГц
Битовая глубина : 16 бит
Метод сжатия : С потерями
Размер потока : 558 Мбайт (3%)
Язык : English
Default : Нет
Forced : Нет

Меню
00:00:00.000 : en:00:00:00.000
00:03:28.625 : en:00:03:28.625
00:07:51.678 : en:00:07:51.678
00:10:07.981 : en:00:10:07.981
00:13:06.701 : en:00:13:06.701
00:15:06.739 : en:00:15:06.739
00:18:04.540 : en:00:18:04.540
00:22:58.710 : en:00:22:58.710
00:25:35.325 : en:00:25:35.325
00:31:40.897 : en:00:31:40.897
00:33:29.214 : en:00:33:29.214
00:36:32.815 : en:00:36:32.815
00:38:30.891 : en:00:38:30.891
00:42:05.481 : en:00:42:05.481
00:45:58.213 : en:00:45:58.213
00:48:31.449 : en:00:48:31.449
00:52:57.007 : en:00:52:57.007
00:55:14.351 : en:00:55:14.351
01:00:39.760 : en:01:00:39.760
01:02:56.563 : en:01:02:56.563
01:05:16.786 : en:01:05:16.786
01:10:50.496 : en:01:10:50.496
01:13:37.287 : en:01:13:37.287
01:16:35.215 : en:01:16:35.215
01:18:52.226 : en:01:18:52.226
01:22:48.296 : en:01:22:48.296
01:24:55.340 : en:01:24:55.340
01:28:25.216 : en:01:28:25.216
01:33:18.551 : en:01:33:18.551
01:36:08.761 : en:01:36:08.761
01:41:54.690 : en:01:41:54.690
01:45:23.442 : en:01:45:23.442
01:48:16.488 : en:01:48:16.488
01:51:43.654 : en:01:51:43.654
01:54:43.667 : en:01:54:43.667
01:56:51.503 : en:01:56:51.503
скриншот  

скриншот  

скриншот  

скриншот  

скриншот  

скриншот  
piratbit-ru.gq



Скачать Алита: Боевой ангел в 3Д через торрент https://a.radikal.ru/a32/1907/36/b14afc8c43fa.png Скачать фильм Алита: Боевой ангел в 3Д через торрент бесплантно в хорошем качестве Описание: Действие фильма происходит в XXVI веке, через 300 лет после Великой войны. Доктор Идо находит останки женщины-киборга. После ... 10 10 2
Info! Золотая раздача, скачанное не засчитывается.
Торрент: Зарегистрирован [2019-07-17 13:17] · скачан: 29 раз
Статус: √ проверено
Размер: 19.4 GB
Как cкачать? Как скачать Алита: Боевой ангел в 3Д через торрент | qTorrent


>> Регистрируемся здесь <<






Отзывы и комментарии о схеме читаем и пишем здесь: ---> Отзывы и комментарии о схеме

Новые благодарочки в телеграм довольных пользователей:
скриншот   скриншот   скриншот   скриншот   скриншот
    Дорогой пользователь! Огромная просьба, поблагодарите релизера, оцените раздачу и оставьте свои комментарий, если Вы скачали Алита: Боевой ангел в 3Д через торрент бесплатно! Внесите свою лепту в развитие PiratBit!
    Комментировать посты могут только пользователи прошедшие не сложную регистрацию
    Показать сообщения:    

    Алита: Боевой ангел в 3Д через торрент
    Скачать бесплатно Алита: Боевой ангел в 3Д
    Алита: Боевой ангел в 3Д скачать торрент
    Алита: Боевой ангел в 3Д смотреть онлайн
    Cкачать фильм Алита: Боевой ангел в 3Д бесплатно
    Алита: Боевой ангел в 3Д скачать торрент в хорошем качестве
    Алита: Боевой ангел в 3Д смотреть онлайн бесплатно в хорошем качестве


    Вы не можете начинать темы
    Вы не можете отвечать на сообщения
    Вы не можете редактировать свои сообщения
    Вы не можете удалять свои сообщения
    Вы не можете голосовать в опросах
    Вы не можете прикреплять файлы к сообщениям
    Вы можете скачивать файлы