MEGA NEWS Получи личный уникальный адрес сайта и защити себя от блокировок. Внимание количество ограничено!!!

iTunes

1+1

iTunes

мы

iTunes

1

iTunes

Чернобыль

iTunes

Ральф против интернета

Лицензия

ПШазам

Лицензия

Игра престолов

Лицензия

30
pack

ВАЖНО

!!Акция!!

Alien_RageХит недели

RePack

Resident Evil 21

ИГРА 18+

pack

RePack

Metro:Exodus

!!Акция!!

Alien_Rage

RePack

fifa19

RePack

Assassins Creed: Odyssey

RePack

NEED FOR SPEED™ PAYBACK

3 сезон

9 сезон

Бесстыжие 9 сезон

Все сериалы

все сериалы на PB.wtf

RePack

FAR CRY 5
Ребята, катастрофически не хватает 1900р. для оплаты серверов за АВГУСТ (всвязи с блокировками трафик упал в 3 раза), 1-2р., выручайте.
  

Фотолаборатория / Darkroom (Терренс О’Хара, Нико Масторакис) [1989, Ужасы, триллер, драма, BDRip 720p] VO - KORSAR piratbit-ru.gq

Фотолаборатория через торрент piratbit-ru.gq

Раздают: 1 [ 0 KB/s ]
Размер: 7.83 GB | Добавлен: 3 мес. 1 д. назад | Торрент скачан:3 раза
Скачать  

13-07-2019 10:40 Фотолаборатория Скачать торрент  

Фотолаборатория / DarkroomГод выпуска: 1989
Выпущено: США, Omega Entertainment
Жанр: ужасы, триллер, драма
Продолжительность: 01:25:27
Перевод: Русский, любительский (одноголосый закадровый)
Субтитры: Английские
Навигация по главам: Есть

Режиссёр: Терренс О’Хара, Нико Масторакис
В ролях: Аарин Тейх, Джилл Пирс, Джефф Арбо, Сара Ли Вэйд, Аллен Либерман, Стелла Кастнер, Джон О’Коннор, Тимоти Хикс

Описание: К девушке, живущей в дачном посёлке, приезжает её бойфренд, работающий фотографом. В кругу семьи, которая состоит из дедули, мамули, сестрёнки и двух сыновей, был распит чай, а после все мирно заснули. Но парень выбрал неудачное время для приезда – ведь в этих местах завёлся маньяк, который сначала оприходовал молодую пару и девчонку местного отщепенца, а затем принялся наводить ужас на благовоспитанное семейство, используя в качестве оружия топор и другие необходимые в хозяйстве вещи, периодически фотографируя собственноручные деяния.

rating

Качество: BDRip 720p
Формат: MKV
Видео: MPEG-4 AVC, 12500 Кбит/сек, 1278x692, 23.976 кадра/сек

Аудио #1: AC3, 2 ch, 192 Кбит/сек | Русский, любительский (одноголосый закадровый)
Аудио #2: AC3, 6 ch, 448 Кбит/сек | Английский, оригинал



Релиз от:
x264 [info]: frame I:797 Avg QP:16.09 size:242537
x264 [info]: frame P:24210 Avg QP:19.00 size:110028
x264 [info]: frame B:97938 Avg QP:21.07 size: 52449
x264 [info]: consecutive B-frames: 1.4% 1.9% 4.4% 14.1% 22.2% 39.0% 8.1% 2.4% 2.3% 1.3% 0.6% 0.7% 0.4% 0.4% 0.3% 0.5% 0.0%

=========================================================================================================================

General
Unique ID : 291481190878140001658558463401422728865 (0xDB493C4174D9D449F859AAB88F83AEA1)
Format : Matroska
Format version : Version 4
File size : 7.83 GiB
Duration : 1 h 25 min
Overall bit rate : 13.1 Mb/s
Movie name : Darkroom [1989]
Encoded date : UTC 2019-05-15 14:47:28
Writing application : mkvmerge v25.0.0 ('Prog Noir') 64-bit
Writing library : libebml v1.3.6 + libmatroska v1.4.9

Video
ID : 1
Format : AVC
Format/Info : Advanced Video Codec
Format profile : High@L4.1
Format settings : CABAC / 9 Ref Frames
Format settings, CABAC : Yes
Format settings, Reference frames : 9 frames
Codec ID : V_MPEG4/ISO/AVC
Duration : 1 h 25 min
Bit rate : 12.5 Mb/s
Width : 1 278 pixels
Height : 692 pixels
Display aspect ratio : 1.85:1
Frame rate mode : Constant
Frame rate : 23.976 (24000/1001) FPS
Color space : YUV
Chroma subsampling : 4:2:0
Bit depth : 8 bits
Scan type : Progressive
Bits/(Pixel*Frame) : 0.590
Stream size : 7.44 GiB (95%)
Title : Darkroom.1989.BDRip.720p.x264-MM
Writing library : x264 core 152 r2851kMod ba24899
Encoding settings : cabac=1 / ref=9 / deblock=1:-3:-2 / analyse=0x3:0x113 / me=umh / subme=11 / psy=1 / fade_compensate=0.00 / psy_rd=1.05:0.10 / mixed_ref=1 / me_range=48 / chroma_me=1 / trellis=2 / 8x8dct=1 / cqm=0 / deadzone=21,11 / fast_pskip=0 / chroma_qp_offset=-3 / threads=12 / lookahead_threads=3 / sliced_threads=0 / nr=0 / decimate=0 / interlaced=0 / bluray_compat=0 / constrained_intra=0 / bframes=16 / b_pyramid=2 / b_adapt=2 / b_bias=0 / direct=3 / weightb=1 / open_gop=0 / weightp=2 / keyint=240 / keyint_min=23 / scenecut=40 / intra_refresh=0 / rc_lookahead=40 / rc=2pass / mbtree=0 / bitrate=12500 / ratetol=1.0 / qcomp=0.60 / qpmin=0 / qpmax=35 / qpstep=4 / cplxblur=20.0 / qblur=0.5 / vbv_maxrate=50000 / vbv_bufsize=62500 / nal_hrd=none / filler=0 / ip_ratio=1.40 / pb_ratio=1.30 / aq=2:0.90
Language : English
Default : Yes
Forced : No
Color range : Limited
Color primaries : BT.709
Transfer characteristics : BT.709
Matrix coefficients : BT.709

Audio #1
ID : 2
Format : AC-3
Format/Info : Audio Coding 3
Commercial name : Dolby Digital
Codec ID : A_AC3
Duration : 1 h 25 min
Bit rate mode : Constant
Bit rate : 192 kb/s
Channel(s) : 2 channels
Channel layout : L R
Sampling rate : 48.0 kHz
Frame rate : 31.250 FPS (1536 SPF)
Bit depth : 16 bits
Compression mode : Lossy
Stream size : 117 MiB (1%)
Title : VO
Language : Russian
Service kind : Complete Main
Default : Yes
Forced : No

Audio #2
ID : 3
Format : AC-3
Format/Info : Audio Coding 3
Commercial name : Dolby Digital
Codec ID : A_AC3
Duration : 1 h 25 min
Bit rate mode : Constant
Bit rate : 448 kb/s
Channel(s) : 6 channels
Channel layout : L R C LFE Ls Rs
Sampling rate : 48.0 kHz
Frame rate : 31.250 FPS (1536 SPF)
Bit depth : 16 bits
Compression mode : Lossy
Stream size : 274 MiB (3%)
Title : Original
Language : English
Service kind : Complete Main
Default : No
Forced : No

Text
ID : 4
Format : UTF-8
Codec ID : S_TEXT/UTF8
Codec ID/Info : UTF-8 Plain Text
Duration : 1 h 23 min
Bit rate : 44 b/s
Count of elements : 1150
Stream size : 27.2 KiB (0%)
Title : SDH
Language : English
Default : No
Forced : No

Menu
00:00:00.000 : en:Chapter 01
00:19:48.020 : en:Chapter 02
00:39:33.621 : en:Chapter 03
00:59:00.620 : en:Chapter 04
01:18:10.936 : en:Chapter 05
За руководство, доведение до ума исходника и рип большое спасибо - filbi1976.

Рип с Darkroom 1989 1080p Blu-ray AVC DTS-HD MA 5.1 || Vinegar Syndrome

Синхронизация звука и сборка - GoldDust
piratbit-ru.gq



Скачать Фотолаборатория через торрент http://img10.lostpic.net/2019/03/14/59e735282bfd99ac42dc3caa7628e3b9.jpg Скачать фильм Фотолаборатория через торрент бесплантно в хорошем качестве Описание: К девушке, живущей в дачном посёлке, приезжает её бойфренд, работающий фотографом. В кругу семьи, которая состоит из дедули, ... 10 10 1
Info! Золотая раздача, скачанное не засчитывается.
Торрент: Зарегистрирован [2019-07-13 10:40] · скачан: 3 раз
Статус: √ проверено
Размер: 7.83 GB
Как cкачать? Как скачать Фотолаборатория через торрент | qTorrent


>> Регистрируемся здесь <<






Отзывы и комментарии о схеме читаем и пишем здесь: ---> Отзывы и комментарии о схеме

Новые благодарочки в телеграм довольных пользователей:
скриншот   скриншот   скриншот   скриншот   скриншот
    Дорогой пользователь! Огромная просьба, поблагодарите релизера, оцените раздачу и оставьте свои комментарий, если Вы скачали Фотолаборатория через торрент бесплатно! Внесите свою лепту в развитие PiratBit!
    Комментировать посты могут только пользователи прошедшие не сложную регистрацию
    Показать сообщения:    

    Фотолаборатория через торрент
    Скачать бесплатно Фотолаборатория
    Фотолаборатория скачать торрент
    Фотолаборатория смотреть онлайн
    Cкачать фильм Фотолаборатория бесплатно
    Фотолаборатория скачать торрент в хорошем качестве
    Фотолаборатория смотреть онлайн бесплатно в хорошем качестве


    Вы не можете начинать темы
    Вы не можете отвечать на сообщения
    Вы не можете редактировать свои сообщения
    Вы не можете удалять свои сообщения
    Вы не можете голосовать в опросах
    Вы не можете прикреплять файлы к сообщениям
    Вы можете скачивать файлы