MEGA NEWS Получи личный уникальный адрес сайта и защити себя от блокировок. Внимание количество ограничено!!!

iTunes

1+1

iTunes

мы

iTunes

1

iTunes

Чернобыль

iTunes

Ральф против интернета

Лицензия

ПШазам

Лицензия

Игра престолов

Лицензия

30
pack

ВАЖНО

!!Акция!!

Alien_RageХит недели

RePack

Resident Evil 21

ИГРА 18+

pack

RePack

Metro:Exodus

!!Акция!!

Alien_Rage

RePack

fifa19

RePack

Assassins Creed: Odyssey

RePack

NEED FOR SPEED™ PAYBACK

3 сезон

9 сезон

Бесстыжие 9 сезон

Все сериалы

все сериалы на PB.wtf

RePack

FAR CRY 5
Ребята, катастрофически не хватает 1900р. для оплаты серверов за АВГУСТ (всвязи с блокировками трафик упал в 3 раза), 1-2р., выручайте.
  

Галаксина / Galaxina (Уильям Сэкс / William Sachs) [1980 г., Фантастика, комедия, приключения , BDRip 720p от KORSAR] [DVO] piratbit-ru.gq

Галаксина через торрент piratbit-ru.gq

Размер: 3.8 GB | Добавлен: 3 мес. 8 д. назад | Торрент скачан:31 раз
Скачать  

06-07-2019 11:05 Галаксина Скачать торрент  

Название: Галаксина
Оригинальное название: Galaxina
Год выпуска: 1980
Жанр: Фантастика, комедия, приключения
Продолжительность: 01:34:25
Перевод: Профессиональный двухголосый
Выпущено: США, Marimark Productions

Режиссер: Уильям Сэкс
В ролях: Стефен Махт, Эйвери Шрайбер, Дж.Д. Хинтон, Дороти Страттен, Лайонел Марк Смит, Тэд Хорино, Рональд Найт, Перси Родригез, Herb Kaplowitz, Аисоп Аквариан

Описание: 3008 год. Полицейский космический корабль Объединенной межгалактической федерации «Бесконечность» бороздит просторы Вселенной. Сержант Тор влюблен в очаровательного андроида Галаксину. Она не умеет говорить и только моргает большими глазами, когда Тор целует ее. Однажды корабль получает приказ отправиться на планету Альта и достать редкий горный минерал «Голубая звезда». Космонавты погружаются в криогенный сон на 27 лет, оставляя Галаксину управлять кораблем. В это время, заинтригованная вниманием со стороны человека, Галаксина перепрограммирует себя и начинает учиться говорить, чтобы быть готовой общаться с Тором, когда он проснется…

rating

Качество: BDRip 720p
Формат: MKV
Видео: MPEG-4 AVC, 5192 Кбит/сек, 1280x544, 23,976 кадра/сек
Аудио #1: AC3, 2 ch, 192 Кбит/сек | Русский, профессиональный (двухголосый закадровый)
Аудио #2: AC3, 2 ch, 384 Кбит/сек | Английский, оригинал
Субтитры: Нет
Навигация по главам: Есть

Релиз от:
Общее
Уникальный идентификатор : 179853136144182109887113399482272215303 (0x874E743C918FA3BC909BAE1A2E287107)
Полное имя : Галаксина.1980.BDRip.720p.KORSAR.mkv
Формат : Matroska
Версия формата : Version 2
Размер файла : 3,80 Гбайт
Продолжительность : 1 ч. 34 м.
Общий поток : 5769 Кбит/сек
Дата кодирования : UTC 2018-12-24 00:21:16
Программа кодирования : mkvmerge v5.8.0 ('No Sleep / Pillow') built on Sep 2 2012 15:37:04
Библиотека кодирования : libebml v1.2.3 + libmatroska v1.3.0

Видео
Идентификатор : 1
Формат : AVC
Формат/Информация : Advanced Video Codec
Профиль формата : High@L4.1
Настройки формата : CABAC / 12 Ref Frames
Параметр CABAC формата : Да
Параметр RefFrames формата : 12 кадров
Идентификатор кодека : V_MPEG4/ISO/AVC
Продолжительность : 1 ч. 34 м.
Битрейт : 5192 Кбит/сек
Ширина : 1280 пикселей
Высота : 544 пикселя
Соотношение сторон : 2,35:1
Режим частоты кадров : Постоянный
Частота кадров : 23,976 (24000/1001) кадра/сек
Цветовое пространство : YUV
Субдискретизация насыщенности : 4:2:0
Битовая глубина : 8 бит
Тип развёртки : Прогрессивная
Бит/(Пиксели*Кадры) : 0.311
Размер потока : 3,35 Гбайт (88%)
Заголовок : RIP | MZMA
Библиотека кодирования : x264 core 152 r2851kMod ba24899
Настройки программы : cabac=1 / ref=12 / deblock=1:-2:-2 / analyse=0x3:0x113 / me=umh / subme=11 / psy=1 / fade_compensate=0.00 / psy_rd=1.00:0.00 / mixed_ref=1 / me_range=48 / chroma_me=1 / trellis=2 / 8x8dct=1 / cqm=0 / deadzone=21,11 / fast_pskip=0 / chroma_qp_offset=-2 / threads=6 / lookahead_threads=1 / sliced_threads=0 / nr=0 / decimate=0 / interlaced=0 / bluray_compat=0 / constrained_intra=0 / bframes=16 / b_pyramid=2 / b_adapt=2 / b_bias=0 / direct=3 / weightb=1 / open_gop=0 / weightp=2 / keyint=240 / keyint_min=23 / scenecut=40 / intra_refresh=0 / rc_lookahead=40 / rc=2pass / mbtree=0 / bitrate=5192 / ratetol=1.0 / qcomp=0.60 / qpmin=0 / qpmax=69 / qpstep=4 / cplxblur=20.0 / qblur=0.5 / vbv_maxrate=50000 / vbv_bufsize=62500 / nal_hrd=none / filler=0 / ip_ratio=1.25 / pb_ratio=1.30 / aq=3:0.70
Язык : English
По умолчанию : Да
Принудительно : Нет
Цветовой диапазон : Limited
Основные цвета : BT.709
Характеристики трансфера : BT.709
Коэффициенты матрицы : BT.709

Аудио #1
Идентификатор : 2
Формат : AC-3
Формат/Информация : Audio Coding 3
Идентификатор кодека : A_AC3
Продолжительность : 1 ч. 34 м.
Вид битрейта : Постоянный
Битрейт : 192 Кбит/сек
Каналы : 2 канала
Расположение каналов : Front: L R
Частота : 48,0 КГц
Частота кадров : 31,250 кадров/сек (1536 SPF)
Битовая глубина : 16 бит
Метод сжатия : С потерями
Размер потока : 130 Мбайт (3%)
Заголовок : DVO
Язык : Russian
По умолчанию : Да
Принудительно : Нет

Аудио #2
Идентификатор : 3
Формат : AC-3
Формат/Информация : Audio Coding 3
Идентификатор кодека : A_AC3
Продолжительность : 1 ч. 34 м.
Вид битрейта : Постоянный
Битрейт : 384 Кбит/сек
Каналы : 2 канала
Расположение каналов : Front: L R
Частота : 48,0 КГц
Частота кадров : 31,250 кадров/сек (1536 SPF)
Битовая глубина : 16 бит
Метод сжатия : С потерями
Размер потока : 259 Мбайт (7%)
Заголовок : Original
Язык : English
По умолчанию : Нет
Принудительно : Нет

Меню
00:00:00.000 : en:Chapter 01
00:06:34.560 : en:Chapter 02
00:15:09.408 : en:Chapter 03
00:23:57.227 : en:Chapter 04
00:32:44.504 : en:Chapter 05
00:39:19.899 : en:Chapter 06
00:45:58.213 : en:Chapter 07
00:54:53.707 : en:Chapter 08
01:03:17.877 : en:Chapter 09
01:12:09.074 : en:Chapter 10
01:20:57.269 : en:Chapter 11
01:27:35.375 : en:Chapter 12
скриншот  скриншот  скриншот  скриншот  скриншот  скриншот  скриншот  скриншот  
piratbit-ru.gq



Скачать Галаксина через торрент http://b.radikal.ru/b19/1907/ed/13f1aab9a421.png Скачать фильм Галаксина через торрент бесплантно в хорошем качестве Описание: 3008 год. Полицейский космический корабль Объединенной межгалактической федерации «Бесконечность» бороздит просторы Вселенной. ... 10 10 5
Info! Золотая раздача, скачанное не засчитывается.
Торрент: Зарегистрирован [2019-07-06 11:05] · скачан: 31 раз
Статус: √ проверено
Размер: 3.8 GB
Как cкачать? Как скачать Галаксина через торрент | qTorrent


>> Регистрируемся здесь <<






Отзывы и комментарии о схеме читаем и пишем здесь: ---> Отзывы и комментарии о схеме

Новые благодарочки в телеграм довольных пользователей:
скриншот   скриншот   скриншот   скриншот   скриншот
    Дорогой пользователь! Огромная просьба, поблагодарите релизера, оцените раздачу и оставьте свои комментарий, если Вы скачали Галаксина через торрент бесплатно! Внесите свою лепту в развитие PiratBit!
    Комментировать посты могут только пользователи прошедшие не сложную регистрацию
    Показать сообщения:    

    Галаксина через торрент
    Скачать бесплатно Галаксина
    Галаксина скачать торрент
    Галаксина смотреть онлайн
    Cкачать фильм Галаксина бесплатно
    Галаксина скачать торрент в хорошем качестве
    Галаксина смотреть онлайн бесплатно в хорошем качестве


    Вы не можете начинать темы
    Вы не можете отвечать на сообщения
    Вы не можете редактировать свои сообщения
    Вы не можете удалять свои сообщения
    Вы не можете голосовать в опросах
    Вы не можете прикреплять файлы к сообщениям
    Вы можете скачивать файлы