MEGA SALE -50% FORZA HORIZON 4 ULTIMATE+ВСЕ DLC+ОНЛАЙН всего за 599р. 299 руб. (супер цена). Внимание количество ограничено!!!

iTunes

1+1

iTunes

мы

iTunes

1

iTunes

Чернобыль

iTunes

Ральф против интернета

Лицензия

ПШазам

Лицензия

Игра престолов

Лицензия

30
pack

ВАЖНО

!!Акция!!

Alien_RageХит недели

RePack

Resident Evil 21

ИГРА 18+

pack

RePack

Metro:Exodus

!!Акция!!

Alien_Rage

RePack

fifa19

RePack

Assassins Creed: Odyssey

RePack

NEED FOR SPEED™ PAYBACK

3 сезон

9 сезон

Бесстыжие 9 сезон

Все сериалы

все сериалы на PB.wtf

RePack

FAR CRY 5
Ребята, катастрофически не хватает 7730р. для оплаты серверов за АВГУСТ (всвязи с блокировками трафик упал в 3 раза), 1-2р., выручайте.
  

Призраки дома на холме / The Haunting of Hill House / Сезон: 1 / Серии: 1-10 из 10 (Майк Флэнеган) [2018, Драма, ужасы, WEB-DLRip] MVO [NewStudio] piratbit-ru.gq

Призраки дома на холме через торрент piratbit-ru.gq

Раздают: 1 [ 90 KB/s ]
Размер: 6.91 GB | Добавлен: 8 мес. назад | Торрент скачан:72 раза
Скачать  

16-01-2019 00:48 Призраки дома на холме Скачать торрент  

Призраки дома на холме | The Haunting of Hill House Год выпуска: 2018
Страна: США
Жанр: Драма, ужасы
Продолжительность: ~ 00:59:00
Перевод: Профессиональный (многоголосый закадровый) | NewStudio
Субтитры: Русские (Full, Forced), английские (Full, SDH)

Режиссёр: Майк Флэнеган / Mike Flanagan

rating


В ролях:

Маккенна Грэйс, Карла Гуджино, Микил Хаусмен, Тимоти Хаттон, Генри Томас, Лулу Уилсон, Оливер Джексон-Коэн, Элизабет Ризер, Кейт Сигел, Саманта Слойан, Роберт Лонгстрит, Джеймс Лэфферти, Катрин Паркер, Элизабет Бечка, Джордана Кристи, Энтони Руйвивар, Кэти Карпентер, Анна Энгер, Джеймс Флэнеган, Эрианн Мартин, Дэвид Моретти

Описание:

История семьи, которая долгое время жила в доме, населённом призраками. Годы спустя трагедия заставляет их вернуться в тот дом и встретиться лицом к лицу со злом, обитающим в его стенах.

Качество: WEB-DLRip
Контейнер: AVI

Видео: XviD, 704x352 (2,000), 23,976 кадров/сек, ~1500 Кбит/сек
Аудио Rus: MP3, 48 kHz, 2 ch, 128 Кбит/сек | NewStudio
Аудио Eng: MP3, 48 kHz, 2 ch, 128 Кбит/сек
01. Стивен видит призрак / Steven Sees a Ghost
02. Открытый гроб / Open Casket
03. Прикосновение / Touch
04. Близнецы / The Twin Thing
05. Дама с шеей набок / The Bent-Neck Lady
06. Два шторма / Two Storms
07. Прощальная речь / Eulogy
08. Знаки свидетелей / Witness Marks
09. Белая горячка / Screaming Meemies
10. Безмолвие / Silence Lay Steadily
Общее
Полное имя : E:\The Haunting of Hill House (Season 1) WEB-DLRip\The.Haunting.of.Hill.House.S01E01.WEB-DLRip.avi
Формат : AVI
Формат/Информация : Audio Video Interleave
Размер файла : 754 Мбайт
Продолжительность : 59 м. 39 с.
Общий поток : 1767 Кбит/сек
Программа кодирования : VirtualDubMod 1.5.10.3 | www.virtualdub-fr.org || (build 2550/release)
Библиотека кодирования : VirtualDubMod build 2550/release

Видео
Идентификатор : 0
Формат : MPEG-4 Visual
Профиль формата : Advanced Simple@L5
Настройки формата : BVOP1 / Custom Matrix
Параметр BVOP формата : 1
Параметр QPel формата : Нет
Параметр GMC формата : Без точки перехода
Параметр матрицы формата : Выборочная
Идентификатор кодека : XVID
Идентификатор кодека/Подсказка : XviD
Продолжительность : 59 м. 39 с.
Битрейт : 1497 Кбит/сек
Ширина : 704 пикселя
Высота : 352 пикселя
Соотношение сторон : 2,000
Частота кадров : 23,976 (24000/1001) кадра/сек
Частота кадров в оригинале : 23,976 (23976/1000) кадра/сек
Цветовое пространство : YUV
Субдискретизация насыщенности : 4:2:0
Битовая глубина : 8 бит
Тип развёртки : Прогрессивная
Метод сжатия : С потерями
Бит/(Пиксели*Кадры) : 0.252
Размер потока : 639 Мбайт (85%)
Библиотека кодирования : XviD 73

Аудио #1
Идентификатор : 1
Формат : MPEG Audio
Версия формата : Version 1
Профиль формата : Layer 3
Идентификатор кодека : 55
Идентификатор кодека/Подсказка : MP3
Продолжительность : 59 м. 39 с.
Вид битрейта : Постоянный
Битрейт : 128 Кбит/сек
Каналы : 2 канала
Частота : 48,0 КГц
Частота кадров : 41,667 кадра/сек (1152 SPF)
Метод сжатия : С потерями
Размер потока : 54,6 Мбайт (7%)
Выравнивание : Соединение по промежуткам
Продолжительность промежутка : 42 мс. (1,00 видеокадр)
Время предзагрузки промежутка : 504 мс.
Библиотека кодирования : LAME3.98r
Настройки программы : -m s -V 4 -q 2 -lowpass 17 -b 128

Аудио #2
Идентификатор : 2
Формат : MPEG Audio
Версия формата : Version 1
Профиль формата : Layer 3
Настройки формата : Joint stereo / MS Stereo
Идентификатор кодека : 55
Идентификатор кодека/Подсказка : MP3
Продолжительность : 59 м. 39 с.
Вид битрейта : Постоянный
Битрейт : 128 Кбит/сек
Каналы : 2 канала
Частота : 48,0 КГц
Метод сжатия : С потерями
Размер потока : 54,6 Мбайт (7%)
Выравнивание : Соединение по промежуткам
Продолжительность промежутка : 42 мс. (1,00 видеокадр)
Время предзагрузки промежутка : 504 мс.
скриншот  скриншот  скриншот  скриншот  
piratbit-ru.gq



Скачать Призраки дома на холме через торрент http://pic1.kartinco.top/images/11/zfnlm.jpg Скачать фильм Призраки дома на холме через торрент бесплантно в хорошем качестве Описание: История семьи, которая долгое время жила в доме, населённом призраками. Годы спустя трагедия заставляет их вернуться в тот дом и ... 10 10 4
Торрент: Зарегистрирован [2019-01-16 00:48] · скачан: 72 раз
Статус: √ проверено
Размер: 6.91 GB
Как cкачать? Как скачать Призраки дома на холме через торрент | qTorrent

% Раздел Тема Автор DL S | L
Зарубежные сериалы [ 7.44 GB ] Призраки дома на холме / The Haunting of Hill House / Сезон: 1 / Серии: 1-10 из 10 [2018 WEB-DLRip] [MVO] killermax2013 Скачать
1 | 0
Зарубежные сериалы [ 6.91 GB ] Призраки дома на холме / The Haunting of Hill House / Сезон: 1 / Серии: 1-10 из 10 [2018 WEB-DLRip] MVO [LostFilm] bober100 Скачать
1 | 0
Зарубежные сериалы [ 7.43 GB ] Призраки дома на холме / The Haunting of Hill House / Сезон: 1 / Серии: 1-10 из 10 [2018 WEB-DL 720p] [MVO] killermax2013 Скачать
2 | 0
Зарубежные сериалы [ 27.73 GB ] Призраки дома на холме / The Haunting of Hill House / Сезон: 1 / Серии: 1-10 из 10 [2018 WEBRip 1080p] MVO [NewStudio] bober100 Скачать
3 | 0
Зарубежные сериалы [ 11.93 GB ] Призраки дома на холме / The Haunting of Hill House / Сезон: 1 / Серии: 1-10 из 10 [2018 WEB-DL 1080p] [MVO] killermax2013 Скачать
1 | 0
Зарубежные сериалы [ 12.98 GB ] Призраки дома на холме / The Haunting of Hill House / Сезон: 1 / Серии: 1-10 из 10 [2018 WEB-DL 1080p] MVO [АРК-ТВ Studio & VSI International] bober100 Скачать
1 | 0
Зарубежные сериалы [ 9.2 GB ] Призраки дома на холме / The Haunting of Hill House / Сезон: 1 / Серии: 1-10 из 10 [2018 WEB-DL 720p] [DVO] killermax2013 Скачать
1 | 0


>> Регистрируемся здесь <<






Отзывы и комментарии о схеме читаем и пишем здесь: ---> Отзывы и комментарии о схеме

Новые благодарочки в телеграм довольных пользователей:
скриншот   скриншот   скриншот   скриншот   скриншот

16-01-2019 04:06 Призраки дома на холме Скачать торрент  

Отличный сериалpiratbit-ru.gq



11-09-2019 14:53 Призраки дома на холме Скачать торрент  

у меня у одного 8-9-10 без перевода серии?piratbit-ru.gq



    Дорогой пользователь! Огромная просьба, поблагодарите релизера, оцените раздачу и оставьте свои комментарий, если Вы скачали Призраки дома на холме через торрент бесплатно! Внесите свою лепту в развитие PiratBit!
    Комментировать посты могут только пользователи прошедшие не сложную регистрацию
    Показать сообщения:    

    Призраки дома на холме через торрент
    Скачать бесплатно Призраки дома на холме
    Призраки дома на холме скачать торрент
    Призраки дома на холме смотреть онлайн
    Cкачать фильм Призраки дома на холме бесплатно
    Призраки дома на холме скачать торрент в хорошем качестве
    Призраки дома на холме смотреть онлайн бесплатно в хорошем качестве


    Вы не можете начинать темы
    Вы не можете отвечать на сообщения
    Вы не можете редактировать свои сообщения
    Вы не можете удалять свои сообщения
    Вы не можете голосовать в опросах
    Вы не можете прикреплять файлы к сообщениям
    Вы можете скачивать файлы